it-swarm.com.de

CAF in MP3 oder WAV konvertieren?

Ich habe einen CAF-Server auf meinem Ubuntu 9.10-Server und muss sie in MP3 oder WAV konvertieren. Ich habe es bereits mit pacpl und ffmpeg versucht, aber es hat nicht funktioniert (ich habe nicht die richtigen Kodierungen in Ubuntu).

Weiß jemand, wie man die CAF-Datei in Ubuntu konvertiert?

Bearbeiten:

Die Ausgabe des Befehls pacpl (pacpl input.caf -to mp3) ist:

Converting: [test.caf] -> [mp3] decode failed with exit status: 256 Total files converted: 0, failed: 1

pacpl 6a27cb1fcd120491531eb8b984c536bd.caf -t wav Perl Audio Converter - 4.0.5

Beim Dekodieren eines Wav:

Converting: [6a27cb1fcd120491531eb8b984c536bd.caf] -> [wav] decode failed with exit status: 256

Total files converted: 0, failed: 1

Die Zeiten haben sich seit Ubuntu 9.10 geändert und jetzt hat eine moderne Version von FFmpeg in einem neueren Ubuntu sowohl einen Encoder als auch Decoder für den Caf-Container (Core Audio Format). Testen Sie Ihre eigene moderne Version von FFmpeg wie folgt für ' D ' ecoding und ' E = 'ncoding with caf:

ffmpeg -formats 2>/dev/null | grep caf
 DE caf             Apple CAF (Core Audio Format)

Testen mit dem folgenden Beispiel .caf Datei:

wget samples.mplayerhq.hu/A-codecs/caf/waterfall.caf

zeigt eine einfache Konvertierung in mp3:

ffmpeg -i waterfall.caf -hide_banner -ac 1 test.mp3
[caf @ 0x66e8c0] Estimating duration from bitrate, this may be inaccurate
Guessed Channel Layout for Input Stream #0.0 : mono
Input #0, caf, from 'waterfall.caf':
  Duration: 00:00:01.95, start: 0.000000, bitrate: 722 kb/s
    Stream #0:0: Audio: pcm_s16le (lpcm / 0x6D63706C), 44100 Hz, mono, s16, 705 kb/s
Stream mapping:
  Stream #0:0 -> #0:0 (pcm_s16le (native) -> mp3 (libmp3lame))
Press [q] to stop, [?] for help
Output #0, mp3, to 'test.mp3':
  Metadata:
    TSSE            : Lavf58.10.100
    Stream #0:0: Audio: mp3 (libmp3lame), 44100 Hz, mono, s16p
    Metadata:
      encoder         : Lavc58.13.100 libmp3lame
size=      16kB time=00:00:01.96 bitrate=  65.7kbits/s speed=75.6x    
video:0kB audio:16kB subtitle:0kB other streams:0kB global headers:0kB muxing overhead: 1.429291%
4
andrew.46